Showing 1 Result(s)
DEFAULT

Gana baja de hd video

Mera Gana Baja De - Hey Bro (DJ Video Song) Full HD p Song: Mera Gana Baja De Full HD Song - Hey Bro | DJ' Video Song Movie: Hey Bro Singer: Sunidhi Chauhan, Ali Zafar4/5(K). Title: DJ - Mera Gana Baja De sung by Sunidhi Chauhan Feat. Ali Zafar - Hey Bro p x AAC Hindi + Noopresent else [GWC] Stream size: MiB (94%) Cinematography Arun Mascarenhas Edited by Nitin Madhukar Rokde Release dates February 27, Country India Language Hindi Download DJ (Mera Gana Baja De) Video Song. Dj Gana Baja De Video Download 3GP, MP4, HD MP4, And Watch Dj Gana Baja De video.

Gana baja de hd video

Mera Gana Baja De - Hey Bro (DJ Video Song) Full HD p Song: Mera Gana Baja De Full HD Song - Hey Bro | DJ' Video Song Movie: Hey Bro Singer: Sunidhi Chauhan, Ali Zafar4/5(K). Title: DJ - Mera Gana Baja De sung by Sunidhi Chauhan Feat. Ali Zafar - Hey Bro p x AAC Hindi + Noopresent else [GWC] Stream size: MiB (94%) Cinematography Arun Mascarenhas Edited by Nitin Madhukar Rokde Release dates February 27, Country India Language Hindi Download DJ (Mera Gana Baja De) Video Song. Dj Gana Baja De Video Download 3GP, MP4, HD MP4, And Watch Dj Gana Baja De video.

Watch Now Gana Baja De Hd Video

Mera Gana Baja De - Hey Bro (DJ Video Song) Sunidhi Chauhan, Ali Zafar - Ganesh "Full HD 1080p", time: 5:17
Tags: Tekken 6 for pc xp , , Stereoscopic player 2.1 crack , , Sepultura troops of doom guitar pro . Title: DJ - Mera Gana Baja De sung by Sunidhi Chauhan Feat. Ali Zafar - Hey Bro p x AAC Hindi + Noopresent else [GWC] Stream size: MiB (94%) Cinematography Arun Mascarenhas Edited by Nitin Madhukar Rokde Release dates February 27, Country India Language Hindi Download DJ (Mera Gana Baja De) Video Song. Dj Gana Baja De Video Download 3GP, MP4, HD MP4, And Watch Dj Gana Baja De video. Mera Gana Baja De - Hey Bro (DJ Video Song) Full HD p Song: Mera Gana Baja De Full HD Song - Hey Bro | DJ' Video Song Movie: Hey Bro Singer: Sunidhi Chauhan, Ali Zafar4/5(K).